版面规则
提问时请注意:尽量详细描述操作过程、AVS脚本内容等,最好能写出片名,只贴图有时无法看出问题原因。
提示:发布原创内容请尽量使用附件上传。使用网盘会出现过期失效的问题,请注意。
動漫台痴線佬
帖子: 18
注册时间: 2013-10-21 17:48

[沒N卡]AVC+interlaced的TS要怎樣做完美的bob

2014-08-21 20:56

片源http://pan.baidu.com/s/1pJz7VrP

這是TVB-J2頻道所播放的日本動畫
G:\25To23\魔奇少年II\J2_MAGI2_OP.ts
General #1
ID : 1 (0x1)
Complete name : G:\25To23\魔奇少年II\J2_MAGI2_OP.ts
Format : MPEG-TS
File size : 59.2 MiB
Duration : 1mn 29s
Overall bit rate mode : Variable
Overall bit rate : 5 490 Kbps
Video #821
ID : 821 (0x335)
Menu ID : 82 (0x52)
Format : AVC
Format/Info : Advanced Video Codec
Format profile : High@L4.0
Format settings, CABAC : Yes
Format settings, ReFrames : 4 frames
Format settings, GOP : M=3, N=12
Codec ID : 27
Duration : 1mn 29s
Bit rate : 4 831 Kbps
Width : 1 920 pixels
Height : 1 080 pixels
Display aspect ratio : 16:9
Frame rate : 25.000 fps
Color space : YUV
Chroma subsampling : 4:2:0
Bit depth : 8 bits
Scan type : Interlaced
Scan order : Top Field First
Bits/(Pixel*Frame) : 0.093
Stream size : 51.5 MiB (87%)
Color primaries : BT.709
Transfer characteristics : BT.709
Matrix coefficients : BT.709
Audio #822
ID : 822 (0x336)
Menu ID : 82 (0x52)
Format : AC-3
Format/Info : Audio Coding 3
Mode extension : CM (complete main)
Format settings, Endianness : Big
Codec ID : 6
Duration : 1mn 29s
Bit rate mode : Constant
Bit rate : 192 Kbps
Channel(s) : 2 channels
Channel positions : Front: L R
Sampling rate : 48.0 KHz
Bit depth : 16 bits
Compression mode : Lossy
Delay relative to video : -268ms
Stream size : 2.06 MiB (3%)
Audio #823
ID : 823 (0x337)
Menu ID : 82 (0x52)
Format : AC-3
Format/Info : Audio Coding 3
Mode extension : CM (complete main)
Format settings, Endianness : Big
Codec ID : 6
Duration : 1mn 29s
Bit rate mode : Constant
Bit rate : 192 Kbps
Channel(s) : 2 channels
Channel positions : Front: L R
Sampling rate : 48.0 KHz
Bit depth : 16 bits
Compression mode : Lossy
Delay relative to video : -267ms
Stream size : 2.06 MiB (3%)
Text #825
ID : 825 (0x339)
Menu ID : 82 (0x52)
Format : DVB Subtitle
Codec ID : 6
Duration : 1mn 14s
Delay relative to video : 11s 896ms
Language : Chinese
需要先bob再用Srestore來Deblenders及轉回23.976FPS
但我用DGAVCIndex、LWLibavVideoSource及FFmpegSource載入TS後
不論使用甚麽反交錯都不能完美bob
bob出來的畫面不順暢,一進一退這樣
以下是我會寫的最基本avs

代码: 全选

LWLibavVideoSource("G:\魔奇少年II\魔奇少年II_01_OP.ts.lwi") Yadif(mode=1, order=-1) Srestore()
不要問我為甚麼使用Yadif哦,TV源不需用到QTGMC怎麼高級

經朋友證實只要用DGIndexNV載入TS則可以完美bob,畫面順暢
但問題是我沒N卡


動漫台痴線佬
帖子: 18
注册时间: 2013-10-21 17:48

Re: [沒N卡]AVC+interlaced的TS要怎樣做完美的bob

2014-08-22 10:58

mawen1250 写了:错误的场序设置,手动用AssumeTFF或AssumeBFF
已經試過了...情況一樣
還試過封成MKV再餵LWLibavVideoSource及FFmpegSource...情況都一樣 {:cat_5}

manofman
帖子: 119
注册时间: 2012-09-01 4:39

Re: [沒N卡]AVC+interlaced的TS要怎樣做完美的bob

2014-08-24 10:21

我用yadifmod + assumetff 測試過,沒有問題

代码: 全选

LWLibavVideoSource("J2_MAGI2_OP.ts") assumetff() yadifmod(mode=1, edeint=nnedi3(field=-2)) srestore(23.976)

動漫台痴線佬
帖子: 18
注册时间: 2013-10-21 17:48

Re: [沒N卡]AVC+interlaced的TS要怎樣做完美的bob

2014-08-24 13:19

manofman 写了:我用yadifmod + assumetff 測試過,沒有問題

代码: 全选

LWLibavVideoSource("J2_MAGI2_OP.ts") assumetff() yadifmod(mode=1, edeint=nnedi3(field=-2)) srestore(23.976)
THX U
但問題還沒解決 {:cat_5}
可能Deblend後不大顯眼
在bob後的164-171場(00:00:03.280-00:00:03.420)也有場序錯誤問題
Deblend之後也不算完全順暢

其後用DGAVCIndex發現好像沒有了場序錯誤的問題
但DGAVCIndex對其他某台的TS會全片出現爆格問題
對剪了廣告的TS在剪接位也會出現爆格問題
因此我棄使用DGAVCIndex
希望不用DGAVCIndex也可完美場序設置

manofman
帖子: 119
注册时间: 2012-09-01 4:39

Re: [沒N卡]AVC+interlaced的TS要怎樣做完美的bob

2014-08-24 15:48

DGAVCIndex都被廢棄了很多年了,早就不應該用。

LWLibavVideoSource確實是用了assumetff還是會有小部份場序錯誤的問題。看來你還是買N卡用dgdecnv好了。

头像
mawen1250
核心会员
核心会员
帖子: 670
注册时间: 2011-07-24 20:33

Re: [沒N卡]AVC+interlaced的TS要怎樣做完美的bob

2014-08-25 22:50

DGIndexIM可以用Intel QuickSync硬解,也可以直接软解,读各种疑难杂症的interlaced源必备。
比如PAFF和MBAFF混合的ts源,这种用:
1. LWLibavVideoSource,PAFF变成重复帧而MBAFF不重复(编辑掉:此bug已修复)
2. DGAVCDec,PAFF直接花屏
3. ffms2/ffmpeg,直接解出来几百万帧……

另外可以用恰当设置好参数的DSS2 mod(有些源用DGIndex无法读取时只能这么做),不过要注意的一点是它会根据audio的delay对视频前面的帧进行duplicate或truncate。而eac3to之类的工具demux audio时又会apply delay,导致音画不同步。所以需要根据音频delay在视频前面用Trim砍帧或用Loop产生重复帧,或是demux audio时不修正delay。
上次由 mawen1250 在 2016-07-24 17:50,总共编辑 2 次。

manofman
帖子: 119
注册时间: 2012-09-01 4:39

Re: [沒N卡]AVC+interlaced的TS要怎樣做完美的bob

2014-08-26 1:24

不知道intel quicksync 跟現在 Nvidia GTX 750 ti 的 vp6哪個硬解比較快

头像
msg7086
帖子: 596
注册时间: 2011-02-19 0:49

Re: [沒N卡]AVC+interlaced的TS要怎樣做完美的bob

2014-08-26 6:10

manofman 写了:不知道intel quicksync 跟現在 Nvidia GTX 750 ti 的 vp6哪個硬解比較快
据说达到了接近的水平。在这之前qs好像是比vp5快不少。
Delogo LGD Collections 各种台标下载 | Home Of VapourSynth Evolution

<回答が無い理由>
1. 誰も知らない
2. 質問文が意味不明
3. 知ってるが、お前の態度が気に入らない
4. 良いボケが思いつかない

動漫台痴線佬
帖子: 18
注册时间: 2013-10-21 17:48

Re: [沒N卡]AVC+interlaced的TS要怎樣做完美的bob

2014-08-26 13:31

mawen1250 写了:DGIndexIM可以用Intel QuickSync硬解,也可以直接软解,读各种疑难杂症的interlaced源必备。
比如PAFF和MBAFF混合的ts源,这种用:
1. LWLibavVideoSource,PAFF变成重复帧而MBAFF不重复
2. DGAVCDec,PAFF直接花屏
3. ffms2/ffmpeg,直接解出来几百万帧……

另外可以用恰当设置好参数的DSS2 mod(有些源用DGIndex无法读取时只能这么做),不过要注意的一点是它会根据audio的delay对视频前面的帧进行duplicate或truncate。而eac3to之类的工具demux audio时又会apply delay,导致音画不同步。所以需要根据音频delay在视频前面用Trim砍帧或用Loop产生重复帧,或是demux audio时不修正delay。
先感謝你...
但如果是amd...又怎麼辦好 {:cat_5}

回到 “AviSynth”